#TITLE:Selfish Love;
#SUBTITLE:;
#ARTIST:Lexy;
#TITLETRANSLIT:Selfish Love;
#SUBTITLETRANSLIT:;
#ARTISTTRANSLIT:Lexy;
#CREDIT:;
#BANNER:Selfish Love-bn.png;
#BACKGROUND:Selfish Love-bg.png;
#LYRICSPATH:;
#CDTITLE:pm4cd.png;
#MUSIC:Selfish Love.mp3;
#OFFSET:0.140;
#SAMPLESTART:81.827;
#SAMPLELENGTH:20.000;
#SELECTABLE:YES;
#BPMS:0.000=120.030;
#STOPS:;
#BGCHANGES:;
// cache tags:
#FIRSTBEAT:1.583;
#LASTBEAT:495.500;
#SONGFILENAME:Songs/Music V.I.P ^_^/Selfish Love/Selfish Love.sm;
#HASMUSIC:1;
#HASBANNER:1;
#MUSICLENGTH:248.957;
// end cache tags

//---------------dance-single - ----------------
#NOTES:
     dance-single:
     :
     Hard:
     15:
     0.980,0.896,1.000,0.173,1.000,1255.000,407.000,43.000,0.000,18.000:
0000
0000
0000
0000
0000
0000
0000
0000
0000
0000
0000
0000
0000
0000
0000
0000
0000
0000
0000
0001
0000
0000
0010
0000
0000
0100
0000
0000
1000
0000
0000
0000
0000
0000
0010
0000
0000
0000
0000
0000
0100
0000
0000
0000
0000
0000
0010
0000
,
0000
0000
0000
0000
0001
0000
0000
0100
0000
0000
0000
0000
0000
0010
0000
0000
0000
0000
0000
1000
0000
0000
0100
0000
0000
0010
0000
0000
0001
0000
0000
0000
0000
0000
0100
0000
0000
0000
0000
0000
0010
0000
0000
0000
0000
0000
1000
0000
,
0000
0000
0000
0000
0100
0000
0000
0001
0000
0000
0000
0000
0000
0010
0000
0000
0000
0000
0000
0001
0000
0000
0010
0000
0000
0100
0000
0000
1000
0000
0000
0000
0000
0000
0010
0000
0000
0000
0000
0000
0100
0000
0000
0000
0000
0000
0001
0000
,
0000
0000
0000
0000
0010
0000
0000
0100
0000
0000
1000
0000
0000
0010
0000
0000
0000
0000
0000
0100
0000
0000
0000
0000
0000
0000
0000
0000
0001
0000
0000
0000
0000
0000
0010
0000
0000
0100
0000
0000
0000
0000
0000
1000
0000
0000
0000
0000
,
0000
0010
0000
0000
0000
0000
0000
0000
0000
0000
0000
0000
0000
0000
0000
0000
2001
0000
0000
0010
0000
0000
0100
0000
0000
0001
0000
0000
0000
0000
0000
0000
0000
0000
0010
0000
0000
0000
0000
0000
0001
0000
0000
0000
0000
0000
0100
0000
,
0000
0000
0000
0000
0010
0000
0000
0001
0000
0000
0000
0000
0000
0010
0000
0000
3000
0000
0000
0000
0000
0000
0102
0000
0000
0010
0000
0000
0100
0000
0000
1000
0000
0000
0000
0000
0000
0100
0000
0000
0000
0000
0000
0010
0000
0000
0000
0000
,
0000
1000
0000
0000
0000
0000
0000
0100
0000
0000
1000
0000
0000
0000
0000
0000
0010
0000
0000
0003
0000
0000
1020
0000
0000
0100
0000
0000
0001
0000
0000
1000
0000
0000
0000
0000
0000
0100
0000
0000
0000
0000
0000
1000
0000
0000
0000
0000
,
0000
0001
0000
0000
0000
0000
0000
0100
0000
0000
0001
0000
0000
0100
0000
0000
1000
0000
0000
0030
0000
0000
2001
0000
0000
0000
0000
0000
0100
0000
0000
0000
0000
0000
0010
0000
0000
0001
0000
0000
0000
0000
0000
0000
0000
0000
0100
0000
,
0000
0000
0000
0000
0001
0000
0000
0000
0000
0000
0000
0000
0000
0000
0000
0000
0010
0000
3000
0000
0000
0101
0000
0000
0010
0000
0000
0100
0000
0000
1000
0000
0000
0011
0000
0000
0100
0000
0000
1001
0000
0000
0010
0000
0000
1100
0000
0000
,
0001
0000
0010
0101
0000
0010
0000
1001
0100
0010
0001
1100
0010
0101
0010
1001
,
0100
0000
0010
1100
0000
0001
0000
1010
0100
0010
0001
1010
0100
1001
0010
1100
,
0001
0000
0100
0011
0100
1000
0000
0101
0000
0010
1100
0010
0101
0000
0000
1010
,
0000
0000
0001
1100
0000
0010
0000
1001
0000
0100
0010
0101
0010
1100
0000
0011
,
0000
0100
0010
1100
0000
0010
0000
1001
0000
0010
0100
1001
0100
0011
0000
1100
,
0000
0010
0100
1001
0000
0100
0010
1001
0000
0010
0100
0011
0100
1010
0000
0101
,
0000
1000
0010
1100
0000
0001
0000
0110
0000
1000
0100
0011
0100
1010
0000
0101
,
0010
1100
0010
0101
0010
1001
0100
0011
0000
0100
0001
1010
0000
0101
0010
1000
,
0000
0100
0010
1001
0000
0010
0100
0011
0000
0100
0010
1001
0000
0011
0100
1000
,
0000
0101
0010
1000
0000
0100
0001
1000
0000
0010
0100
1001
0000
1010
0100
0001
,
0000
0001
0010
1100
0000
0010
0100
0011
0000
0100
0010
1100
0000
0101
0010
1000
,
0000
0100
0010
0101
0000
0010
0001
1100
0000
0010
0100
1001
0000
1010
0100
0001
,
0000
0010
0100
0011
0000
0100
0010
1100
0000
0001
0010
0101
0000
1001
0100
0011
,
0000
0100
0010
1100
0000
0010
0100
1001
0000
0010
0100
0011
0000
1010
0100
1001
,
0000
0001
0010
1100
0000
0100
0010
0101
0000
0010
0100
1001
0000
0101
0010
1100
,
0000
1010
0100
0010
0001
0010
0100
1002
0000
0000
0000
0010
0000
0100
0000
1010
,
0000
0000
0003
0100
0000
0000
0000
0201
0000
0000
0000
1000
0000
0010
0000
1001
,
0000
0000
0300
0011
0000
0000
0000
2001
0000
0000
0000
0010
0000
0100
0000
0011
,
0000
0000
3000
0100
0000
0000
0000
1020
0000
0000
0000
0100
0000
0001
0000
1100
,
0000
0000
0030
0001
0000
0000
0000
2001
0000
0000
0000
0100
0000
0010
0000
0101
,
0000
0000
3000
0010
0000
0000
0000
0201
0000
0000
0000
0010
0000
0001
0000
1010
,
0000
0000
0300
0001
0000
0000
0000
1020
0000
0000
0000
0001
0000
0100
0030
1001
,
0000
0000
0000
0101
0000
0000
0000
2010
0000
0100
0000
0000
0010
0001
0000
0010
,
0000
0100
0000
0011
0000
0100
3010
0101
0000
0010
0000
1100
0000
0201
0000
0010
,
0000
0000
0000
1300
0000
0000
0000
0011
0000
0100
0000
1010
0000
0102
0000
0010
,
0000
0000
0000
0103
0000
0000
0000
1010
0000
0100
0000
0011
0000
2001
0000
0100
,
0000
0000
0000
3010
0000
0000
0000
1101
0000
0010
0000
0101
0000
1010
0000
0110
,
0000
0001
0000
1100
0000
0010
0000
0101
0000
0010
0000
1001
0000
1020
0000
0100
,
0000
0000
0030
0001
0000
0000
0000
1010
0000
0100
0000
0011
0000
1200
0000
0010
,
0000
0000
0000
0301
0000
0000
0000
1010
0000
0000
0000
0100
0000
0011
0000
1100
,
0000
0000
0000
0010
0000
0100
0000
0011
0000
0000
0000
0100
0000
1010
0000
0101
,
0000
0010
0000
1100
0001
0000
0000
1020
0000
0000
0100
0000
0000
0001
0030
0100
,
0000
1000
0000
0010
0000
0000
0000
1001
0000
0100
0001
1010
0000
0101
0010
1000
,
0000
0100
0010
1001
0000
0010
0100
0011
0000
0100
0010
1001
0000
0011
0100
1000
,
0000
0101
0010
1000
0000
0100
0001
1000
0000
0010
0100
1001
0000
1010
0100
0001
,
0000
0001
0010
1100
0000
0010
0100
0011
0000
0100
0010
1100
0000
0101
0010
1000
,
0000
0100
0010
0101
0000
0010
0001
1100
0000
0010
0100
1001
0000
1010
0100
0001
,
0000
0010
0100
0011
0000
0100
0010
1100
0000
0001
0010
0101
0000
1001
0100
0011
,
0000
0100
0010
1100
0000
0010
0100
1001
0000
0010
0100
0011
0000
1010
0100
1001
,
0000
0001
0010
1100
0000
0100
0010
0101
0000
0010
0100
1001
0000
0101
0010
1100
,
0000
1001
0010
0100
1000
0100
0010
0102
0000
0010
0000
1000
0000
0010
0000
0100
,
0000
0010
0003
1000
0000
0000
0000
0201
0000
0010
0000
0001
0000
0010
0000
1000
,
0000
0001
0310
1001
0000
0000
0000
2100
0000
0000
0000
0001
0000
0010
0000
0101
,
0000
0000
3000
0010
0000
0000
0000
1002
0000
0010
0000
0100
0000
1000
0100
0000
,
0010
0100
0003
1000
0000
0001
0000
0210
0000
0000
0000
1000
0000
0010
0000
1001
,
0000
0000
0300
0010
0000
0000
0000
0201
0000
0000
0000
0010
0000
1000
0000
0011
,
0000
0000
0300
1000
0000
0000
0000
1002
0000
0000
0000
0010
0000
0100
0003
1001
,
0000
0000
0000
1010
0000
0000
0000
0012
0000
0100
0000
0000
0010
0100
0000
1000
,
0000
0010
0000
1100
0000
0010
0103
1010
0000
0010
0000
1001
0000
1200
0000
0001
,
0000
0000
0000
0310
0000
0000
0000
1001
0000
0100
0000
0011
0000
1020
0000
0001
,
0000
0000
0000
0130
0000
0000
0000
1001
0000
0100
0000
1010
0000
2100
0000
0001
,
0000
0000
0000
3100
0000
0000
0000
1011
0000
0100
0000
1010
0000
0101
0000
0110
,
0000
1000
0000
0011
0000
0100
0000
1010
0000
0100
0000
0011
0000
1002
0000
0010
,
0000
0000
0000
0103
0000
0000
0000
0101
0000
0010
0000
1001
0000
0201
0000
1000
,
0000
0000
0000
0310
0000
0000
0000
0101
0000
0000
0000
1000
0000
0101
0000
1010
,
0000
0000
0000
0001
0000
0010
0000
1100
0000
0000
0000
0010
0000
1100
0000
0011
,
0000
1000
0000
0101
1000
0000
0000
2010
0000
0000
0100
0000
0000
0001
3000
0010
,
0000
0100
0000
0001
0000
0000
0000
1001
0000
0010
0001
1100
0000
0101
0010
1000
,
0000
0010
0100
1001
0000
0001
0100
1010
0000
0100
0010
1001
0000
1010
0100
1000
,
0000
1100
0010
0001
0000
0100
0010
1000
0000
0001
0100
1001
0000
0101
0010
1000
,
0000
0001
0010
1100
0000
0010
0100
0011
0000
1000
0010
1100
0000
0101
0010
1000
,
0000
0100
0010
1001
0000
0001
0100
1010
0000
0010
0100
1001
0000
1010
0100
0001
,
0000
1000
0100
0011
0000
0001
0010
1100
0000
1000
0010
0101
0000
1001
0100
0011
,
0000
0100
0010
0101
0000
0010
0100
1010
0000
0100
0010
1001
0000
0101
0010
1001
,
0000
1000
0100
1010
0000
0001
0010
0101
0000
1000
0100
0011
0000
1010
0001
0110
,
0000
1010
0100
0010
0001
0010
0100
0011
0000
1000
0010
0101
0000
0011
0100
1000
,
0000
0001
0100
1001
0000
0100
0010
1001
0000
0001
0010
1100
0000
0110
0001
1000
,
0000
0101
0010
0100
0000
0100
0001
1000
0000
0001
0010
0101
0000
0110
0001
1000
,
0000
1000
0010
0101
0000
0010
0100
0011
0000
0001
0010
1100
0000
0011
0100
1000
,
0000
0010
0100
1001
0000
1000
0010
0101
0000
0001
0010
1100
0000
0101
0010
1000
,
0000
0001
0100
1001
0000
0100
0010
1100
0000
0100
0010
0101
0000
1010
0100
1001
,
0000
0010
0100
0011
0000
0010
0100
1010
0000
1000
0010
1001
0000
0101
0010
1100
,
0000
0010
0100
0011
0000
1000
0010
0101
0000
1000
0100
0011
0000
1001
0010
0101
,
0000
1010
0100
0010
0001
0010
0100
1010
0000
1010
0000
1010
0000
1010
0000
0101
,
0000
0101
0000
0101
0000
0101
0000
2001
0000
0000
0000
0010
0000
0100
3000
0001
,
0010
0100
1000
0100
0010
0001
0100
0011
0000
1000
0010
1100
0000
0101
0010
0001
,
0000
0010
0100
1001
0000
1000
0100
0011
0000
0100
0010
1100
0000
0101
0010
1000
,
0000
0001
0010
1100
0000
0010
0100
0011
0000
1000
0100
1010
0000
0001
0010
1100
,
0000
0010
0100
0011
0000
0100
0010
1002
0000
0000
0000
0010
0000
0100
0003
1000
,
0100
0010
0001
0010
0100
1000
0010
0201
0000
0000
0000
0010
0000
1000
0300
0001
,
0010
0100
1000
0000
0000
0100
0010
1001
0000
0010
0100
0011
0000
1010
0100
0010
,
0000
0001
0100
1010
0000
0100
0010
0101
0000
0000
0000
1010
0000
0100
0000
1001
,
0010
0100
0010
0101
0010
1000
0000
0000
0000
0000
0000
0000
0000
0000
0000
1001
,
0000
0100
0001
1010
0000
0101
0010
1000
0000
0100
0010
1001
0000
0010
0100
0011
,
0000
0100
0010
1001
0000
0011
0100
1000
0000
1100
0010
0001
0000
0010
0100
0001
,
0000
0100
0010
1001
0000
0101
0010
1000
0000
1000
0001
0110
0000
1000
0100
0011
,
0000
0001
0010
1100
0000
0101
0010
0001
0000
0100
0010
1001
0000
1000
0010
1100
,
0000
0001
0100
0011
0000
1010
0100
1000
0000
0001
0010
1100
0000
0001
0010
0101
,
0000
1000
0010
0101
0000
1001
0100
1010
0000
0100
0010
1100
0000
0010
0100
0011
,
0000
0010
0100
1001
0000
1100
0010
1001
0000
1000
0100
0011
0000
0100
0010
1100
,
0000
0010
0100
0011
0000
0101
0010
1001
0000
0010
0001
0010
0100
1001
0100
0012
,
0000
0100
1000
0110
0000
1000
0010
0100
0000
1000
0010
0100
0000
0010
0100
1000
,
0000
0100
1000
0010
0000
1000
0103
0010
0000
1100
0010
0001
0000
0100
1000
0021
,
0000
0001
1000
0100
0000
1000
0100
1000
0000
0100
0031
0110
0000
0010
0100
1001
,
0000
1000
0100
0011
0000
0101
0010
1000
0000
0100
0010
1100
0000
0100
0001
1000
,
0000
0010
0001
0100
0000
0001
1000
0010
0000
1000
0100
0011
0000
0100
0010
0101
,
0000
0001
0010
0100
0000
1000
0100
0010
0000
0010
0001
1100
0000
1000
0100
0001
,
0000
0010
0100
0011
0000
1010
0100
1001
0000
0001
0010
0100
0000
0001
0100
1010
,
0000
1000
0100
0010
0000
1010
0100
0011
0000
0101
0010
0100
1000
0100
0010
1001
,
0000
0100
0001
1010
0000
0101
0010
1000
0000
0100
0010
1001
0000
0010
0100
0011
,
0000
0100
0010
1001
0000
0011
0100
1000
0000
0101
0010
1000
0000
0100
0001
1000
,
0000
0010
0100
1001
0000
1010
0100
0001
0000
0001
0010
1100
0000
0010
0100
0011
,
0000
0100
0010
1100
0000
0101
0010
1000
0000
0100
0010
0101
0000
0010
0001
1100
,
0000
0010
0100
1001
0000
1010
0100
0001
0000
0010
0100
0011
0000
0100
0010
1100
,
0000
0001
0010
0101
0000
1001
0100
0011
0000
0100
0010
1100
0000
0010
0100
1001
,
0000
0010
0100
0011
0000
1010
0100
1001
0000
0001
0010
1100
0000
0100
0010
0101
,
0000
0010
0100
1001
0000
0101
0010
1100
0000
0010
0100
0010
0001
1010
0100
0012
,
0000
0100
0000
1010
0000
0100
0010
1000
0000
0100
0010
1000
0000
0010
0100
0010
,
0000
0100
0010
1000
0000
0010
0103
1000
0000
0101
0010
1000
0000
0100
0001
2000
,
0000
0010
0100
0001
0000
0010
0100
0010
0000
3001
0010
0101
0000
0010
0100
0011
,
0000
0100
0010
1100
0000
0101
0010
1000
0000
0100
0010
0101
0000
0010
0001
0200
,
0000
0010
0001
0010
0000
0010
1300
0001
0000
0010
0100
0011
0000
0100
0010
0102
,
0000
1000
0010
0100
0000
1000
0103
0020
0000
0100
0001
1100
0000
0001
0130
1000
,
0000
0010
0100
0011
0000
1010
0100
2001
0000
0001
0010
0100
0000
0100
0010
0101
,
0000
0010
0100
0001
0000
0101
3010
1100
0000
1010
0100
0010
0001
0010
0100
0000
;
